#TITLE:Road of Death;
#SUBTITLE:;
#ARTIST:NieN&M2U(Aqua Records);
#TITLETRANSLIT:;
#SUBTITLETRANSLIT:;
#ARTISTTRANSLIT:;
#CREDIT:;
#BANNER:Road of Death.png;
#BACKGROUND:Road of Death-bg.png;
#LYRICSPATH:;
#CDTITLE:NVLM-cdtitle.png;
#MUSIC:Road of Death.mp3;
#OFFSET:-0.135;
#SAMPLESTART:12.142;
#SAMPLELENGTH:12.000;
#SELECTABLE:YES;
#DISPLAYBPM:180.000;
#BPMS:0.000=180.000,372.000=5760.000,500.000=2880.000;
#STOPS:;
#BGCHANGES:;
// cache tags:
#FIRSTBEAT:0.000;
#LASTBEAT:500.000;
#SONGFILENAME:Songs/Music V.I.P ^_^/Road of Death/Road of Death.sm;
#HASMUSIC:1;
#HASBANNER:1;
#MUSICLENGTH:128.313;
// end cache tags

//---------------dance-single - ----------------
#NOTES:
     dance-single:
     :
     Hard:
     13:
     1.000,1.000,0.733,0.623,0.939,825.000,94.000,80.000,0.000,18.000:
0000
0000
0000
0000
,
0000
0000
0000
0000
,
0000
0000
0000
0000
,
0000
0000
0000
0000
,
1221
0000
0000
0330
,
1000
0001
1000
0001
1000
0001
1000
0001
1000
0001
1000
0001
1000
0001
1000
0001
,
1000
0001
1000
0001
1000
0001
1000
0001
1000
0001
1000
0001
1000
0001
1000
0001
,
1000
0001
1000
0001
1000
0001
1000
0001
1000
0001
1000
0001
1000
0001
1000
0001
,
1000
0001
1000
0001
1000
0001
1000
0001
1000
0001
1000
0001
1000
0001
1000
0001
,
2002
3003
0010
0100
0001
0010
0100
1000
,
2020
3030
0100
0001
0100
1000
0010
0100
,
0202
0303
0001
0010
0100
1000
0010
0100
,
0022
0033
0100
1000
0010
0100
0001
1000
,
2200
3300
0010
0001
0100
0010
1000
0001
,
0202
0303
1000
0010
0100
0001
0010
0100
,
2002
3003
0100
0010
0100
1000
0001
0010
,
2200
0000
3300
0000
0001
0000
0100
0000
0010
1000
0010
1000
0100
0010
0100
0010
,
0001
1000
0001
1000
0000
0000
0010
0100
0010
0100
0000
0000
,
1000
0100
0010
0001
0000
0000
0100
0010
1000
0001
0000
0000
,
0010
0100
1000
0001
0000
0000
0100
0010
1000
0100
0000
0000
,
0010
0001
1000
0010
0000
0000
0100
0001
0010
1000
0000
0000
,
0100
0010
0100
0010
0000
1000
0100
1000
0001
0010
0001
0010
0000
0100
1000
0100
,
1000
0010
0100
0010
0000
0100
0001
0100
0001
1000
0001
1000
0000
0010
0100
0010
,
1000
0100
1000
0100
0000
0100
0010
0001
0010
0001
0000
0001
0100
0010
0100
0010
,
0000
1000
0100
1000
0001
0010
0001
0010
0000
0100
1000
0100
1000
0001
1000
0001
,
1000
0100
0010
0000
0001
0010
0100
0000
1000
0001
0010
0000
0100
1000
0010
0000
,
0100
0001
1000
0000
1000
0100
0010
0000
0001
0010
0100
0000
1000
0001
0010
0000
,
0010
0100
1000
0000
1000
0100
0010
0000
0001
0100
0010
0000
1000
0001
0100
0000
,
0010
1000
0100
0000
0100
0010
0001
0000
0001
1000
0100
0000
0100
1000
0010
0000
,
0011
0000
0001
0010
0001
0000
0011
0000
0011
0000
0001
0010
0001
0000
0011
0000
,
0110
0000
0100
0010
0100
0000
0110
0000
0120
0000
0100
0000
0100
0000
0130
0000
,
1100
0000
1000
0100
1000
0000
1100
0000
1100
0000
1000
0100
1000
0000
1100
0000
,
1010
0000
0010
1000
0010
0000
1010
0000
2010
0000
0010
0000
0010
0000
3010
0000
,
1000
0001
1000
0000
0001
0010
0100
0000
1000
0010
0001
0000
0001
0010
1000
0000
,
1000
0100
0010
0000
0001
1000
0001
0000
0100
0010
1000
0000
0001
0010
0100
0000
,
1000
0100
1000
0000
0001
0010
0100
0000
1000
0010
0100
0000
0001
0010
0100
0000
,
1000
0001
1000
0001
1000
0001
1000
0001
1000
0001
1000
0001
1000
0001
1000
0001
,
2002
3003
0010
0100
1000
0010
0100
0001
,
0022
0033
0100
1000
0100
0001
0010
0100
,
2200
3300
0010
0100
0001
1000
0100
0010
,
0022
0033
0001
0100
0010
1000
1100
0100
,
2002
3003
0010
0100
1000
0010
0100
0001
,
2200
3300
1000
0100
0001
0100
1000
0010
,
0220
0330
0001
0100
0010
1000
0100
0010
,
0001
0000
0001
0000
0100
0000
0100
0000
0010
1000
0010
1000
1001
0000
0000
0000
,
1000
0100
0001
0010
1000
0100
0001
0010
,
1000
0100
0001
0010
1000
0100
2002
3003
,
0010
0001
0100
1000
0010
0001
0100
1000
,
0010
0001
0100
1000
0010
0001
2002
3003
,
0010
0100
0010
0100
0010
0100
0010
0100
0010
0100
0010
0100
0010
0100
0010
0100
,
0010
0100
0010
0100
0010
0100
0010
0100
0010
0100
0010
0100
0010
0100
0010
0100
,
0001
1000
0001
1000
0001
1000
0001
1000
0001
1000
0001
1000
0001
1000
0001
1000
,
0001
1000
0001
1000
0001
1000
0001
1000
0001
1000
0001
1000
,
1002
0203
0320
2030
,
3200
0320
0032
0203
,
0320
2030
3002
0203
,
2300
3200
0302
0023
,
0230
2300
3020
0032
,
0203
0320
2030
3200
,
0310
0001
1000
0100
0010
0001
0100
1000
,
0100
0001
0010
0100
1000
0010
0100
0001
,
1000
0100
1000
0010
0100
0001
0100
0001
0010
0001
0010
0100
,
1000
0100
1000
0010
0100
0001
0100
0001
1000
0100
1000
0100
,
0010
0001
0100
0010
1000
0100
1000
0001
0010
0001
0010
0100
,
1000
0010
0100
0001
1000
0100
1000
0010
0100
0001
0010
0100
,
1000
0001
0100
0010
1000
0100
0010
0001
,
0100
0010
0100
0010
0100
0010
0100
0010
0100
0010
0100
0010
0100
0010
0100
0010
,
0100
0001
0010
0100
1000
0100
0001
0010
,
0100
1000
0100
1000
0100
1000
0100
1000
0100
1000
0100
1000
0100
1000
0100
1000
,
2200
3300
1000
0010
0100
0001
0010
0100
,
2002
3003
0100
0010
0001
0100
0010
1000
,
2020
3030
0001
0100
1000
0100
0001
0010
,
0220
0330
1000
0001
0100
0010
1001
1001
,
2020
3030
0100
0001
0100
1000
0010
0100
,
0202
0303
1000
0010
0100
0001
0010
0010
,
2002
3003
0100
0010
1000
0001
0010
0100
,
1000
0000
0001
0010
0001
0000
0100
0000
0010
0000
1000
0000
2200
0000
3300
0000
,
0111
0111
0111
0111
,
1110
1110
1110
1110
,
1101
1101
1101
1101
,
1011
1011
1011
1011
,
1100
1100
1001
1001
0011
0011
0110
0110
,
1100
1100
1010
1010
0110
0110
0101
0101
,
1001
1001
1001
1001
1100
1100
1100
1100
,
0110
0000
0110
0000
0110
0000
0110
0000
0001
0010
0001
0010
0001
0010
0001
0010
,
0011
0000
0100
1000
0001
0100
0010
1000
,
0100
0010
0001
0100
0010
1000
1100
0000
,
0101
0000
0001
0010
0100
1000
0010
0100
,
0001
1000
0100
0010
0001
0100
0110
0000
,
1000
0100
1000
0010
0100
0001
0010
0100
1000
0100
0010
0001
,
1000
0100
1000
0000
0001
0010
0100
0000
1000
0010
0100
0000
0001
0010
1000
0000
,
0010
0001
0100
0010
1000
0100
1000
0001
0010
0100
1000
0010
,
0100
0001
0100
0001
0100
0001
0100
0001
0100
0001
0100
0001
0100
0001
0100
0001
,
0000
0000
0000
0000
,
0000
0000
0000
0000
,
0000
0000
0000
0000
,
0000
0000
0000
0000
,
0000
0000
0000
0000
,
0000
0000
0000
0000
,
0000
0000
0000
0000
,
0000
0000
0000
0000
,
0000
0000
0000
0000
,
0000
0000
0000
0000
,
0000
0000
0000
0000
,
0000
0000
0000
0000
,
0000
0000
0000
0000
,
0000
0000
0000
0000
,
0000
0000
0000
0000
,
0000
0000
0000
0000
,
2112
0000
0000
0000
,
0000
0000
0000
0000
,
0000
0000
0000
0000
,
0000
0000
0000
0000
,
0000
0000
0000
0000
,
0000
0000
0000
0000
,
0000
0000
0000
0000
,
0000
0000
0000
0000
,
0000
0000
0000
0000
,
0000
0000
0000
0000
,
0000
0000
0000
0000
,
0000
0000
0000
0000
,
0000
0000
0000
0000
,
0000
0000
0000
0000
,
0000
0000
0000
0000
,
0000
0000
0000
0000
,
3003
0000
0000
0000
;

//---------------dance-single - ----------------
#NOTES:
     dance-single:
     :
     Edit:
     22:
     1.000,1.000,1.000,1.000,1.000,1774.000,1127.000,228.000,0.000,565.000:
1111
1100
2222
0000
3333
1100
0011
1001
0110
0011
1100
0011
2222
0000
3333
0000
,
0000
0110
2222
0000
3333
1001
0011
1100
2222
0000
3333
0101
2222
0000
3333
1001
,
1100
0011
2222
0000
3333
1001
2222
0000
3333
1010
0101
1100
0011
2222
3333
0000
,
0000
0110
2222
0000
3333
1100
1010
0101
2222
0000
3333
1010
2222
0000
3333
0101
,
2222
0000
0000
0000
0000
0000
0000
0000
0000
0000
0000
0000
0000
0000
3333
1111
,
1111
1111
1111
1111
1111
1111
1111
1111
1111
1111
1111
1111
1111
1111
1111
1111
,
1111
1111
1111
1111
1111
1111
1111
1111
1111
1111
1111
1111
1111
1111
1111
1111
,
1111
1111
1111
1111
1111
1111
1111
1111
1111
1111
1111
1111
1111
1111
1111
1111
,
1111
1111
1111
1111
1111
1111
1111
1111
1111
1111
1111
1111
1111
1111
1111
1111
,
2222
0000
3333
0000
1111
0010
0001
0100
1001
0010
0100
1000
0110
0001
1000
0010
,
2222
0000
3333
0000
1111
0010
0100
1000
0110
0001
1000
0010
1100
0001
0010
0100
,
2222
0000
3333
0000
1111
0010
1000
0001
0011
0100
1000
0010
1001
0100
0010
0001
,
2222
0000
3333
0000
1111
0010
0100
1000
0110
0001
1000
0010
1100
0001
0010
0100
,
2222
0000
3333
0000
1111
1000
0001
0010
1100
0001
0100
0010
1001
0100
0010
1000
,
2222
0000
3333
0000
1111
0100
0010
1000
0011
0100
1000
0001
0101
0010
1000
0100
,
2222
0000
3333
0000
1111
0010
0100
0001
1100
0010
0001
0001
0110
1000
0001
1000
,
1110
0000
1001
0000
0111
0000
0101
0000
1110
0000
1001
0000
0111
0000
0110
0000
1111
0010
0100
1001
0010
0100
1001
0010
0100
1001
0010
0100
1001
0010
0100
1001
,
1111
0110
1001
0110
1001
0110
1001
0000
0011
1100
0011
1100
0011
1100
0011
0000
0110
1001
0110
1001
0110
1001
0110
0000
1100
0011
1100
0011
1100
0011
1100
0000
,
0011
1100
0011
1100
0011
1100
0011
0000
0101
1010
0101
1010
0101
1010
0101
0000
0110
1001
0110
1001
0110
1001
0110
0000
1010
0101
1010
0101
1010
0101
1010
0000
,
1100
0011
1100
0011
1100
0011
1100
0000
0101
1010
0101
1010
0101
1010
0101
0000
1001
0110
1001
0110
1001
0110
1001
0000
1010
0101
1010
0101
1010
0101
1010
0000
,
1111
0000
0000
0000
0000
0000
0000
0000
0000
0000
0000
0000
0000
0000
0000
0000
0111
0000
0000
0000
0000
0000
0000
0000
0000
0000
0000
0000
0000
0000
0000
0000
1110
0000
0000
0000
0000
0000
0000
0000
0000
0000
0000
0000
0000
0000
0000
0000
0111
0000
0000
0000
0000
0000
0000
0000
0000
0000
0000
0000
0000
0000
0000
0000
1110
0000
0000
0000
0000
0000
0000
0000
0000
0000
0000
0000
0000
0000
0000
0000
0111
0000
0000
0000
0000
0000
0000
0000
0000
0000
0000
0000
0000
0000
0000
0000
1111
0000
0000
0000
0000
0000
1111
0000
0000
0000
0000
0000
1111
0000
0000
0000
0000
0000
1111
0000
0000
0000
0000
0000
1111
0000
0000
0000
0000
0000
1111
0000
0000
0000
0000
0000
1111
0000
0000
0000
0000
0000
1111
0000
0000
0000
0000
0000
1111
0000
0000
0000
0000
0000
1111
0000
0000
0000
0000
0000
1111
0000
0000
0000
0000
0000
1111
0000
0000
0000
0000
0000
1111
0000
0000
0000
0000
0000
1111
0000
0000
0000
0000
0000
1111
0000
0000
0000
0000
0000
1111
0000
0000
0000
0000
0000
,
1111
0110
0101
0011
0110
1100
1010
0110
1111
1001
0110
1100
1010
0110
0101
1001
,
1111
1010
0101
0011
0110
1100
0011
1001
1111
0110
1100
1010
0110
0101
0011
0110
,
1111
1010
0110
0101
1001
1100
0101
0011
1111
1100
1010
0101
0011
0110
1100
1010
,
1111
0101
1001
0110
0011
0101
0110
1010
1111
0101
0011
0110
1100
1001
0011
0110
,
2111
0101
3011
0110
2101
0011
3110
0101
2111
0110
3101
0011
2110
0011
3101
1100
,
1112
1010
0113
1100
1012
0110
1013
1100
0112
1010
1103
0110
1012
1100
0113
0101
,
1121
1001
1130
0101
1021
1100
0131
1001
1120
0101
1031
1100
0121
1001
1130
0110
,
1211
1001
0311
1010
1201
0011
1301
1010
0211
1001
1310
0011
1201
1010
0311
0101
,
1211
0000
0000
0000
0000
0000
0000
0000
0000
0000
0000
0000
1000
0000
0000
0000
0001
0000
0000
0000
0000
0000
0000
0000
1300
0000
0000
0000
0000
0000
0000
0000
0010
0000
0000
0000
1000
0000
0000
0000
0000
0000
0001
0000
0000
0000
0000
0000
1120
0000
0000
0000
0000
0000
0000
0000
0000
0000
0000
0000
1000
0000
0000
0000
0001
0000
0000
0000
0000
0000
0000
0000
1030
0000
0000
0000
0000
0000
0000
0000
0100
0000
0000
0000
1000
0000
0000
0000
0000
0000
0000
0000
0000
0000
0000
0000
1021
0000
0000
0000
0000
0000
0100
0000
0000
0000
0000
0000
1000
0000
0000
0000
0001
0000
0000
0000
0000
0000
0000
0000
1030
0000
0000
0000
0000
0000
0000
0000
0100
0000
0000
0000
1000
0000
0000
0000
0000
0000
0001
0000
0000
0000
0000
0000
1120
0000
0000
0000
0000
0000
0000
0000
0000
0000
0000
0000
1000
0000
0000
0000
0001
0000
0000
0000
0000
0000
0000
0000
1030
0000
0000
0000
0000
0000
0000
0000
0100
0000
0000
0000
1000
0000
0000
0000
0000
0000
0000
0000
0000
0000
0000
0000
,
1121
0000
0000
0000
0000
0000
0000
0000
0000
0000
0000
0000
0001
0000
0000
0000
0100
0000
0000
0000
0000
0000
0000
0000
1031
0000
0000
0000
0000
0000
0000
0000
0100
0000
0000
0000
0001
0000
0000
0000
0000
0000
0000
0000
0000
0000
0000
0000
2011
0000
0000
0000
0000
0000
0100
0000
0000
0000
0000
0000
0001
0000
0000
0000
0010
0000
0000
0000
0000
0000
0000
0000
3001
0000
0000
0000
0000
0000
0000
0000
0100
0000
0000
0000
0001
0000
0000
0000
0000
0000
1000
0000
0000
0000
0000
0000
0121
0000
0000
0000
0000
0000
0000
0000
0000
0000
0000
0000
0001
0000
0000
0000
1000
0000
0000
0000
0000
0000
0000
0000
0031
0000
0000
0000
0000
0000
0000
0000
0100
0000
0000
0000
0001
0000
0000
0000
0000
0000
0010
0000
0000
0000
0000
0000
2101
0000
0000
0000
0000
0000
0000
0000
0000
0000
0000
0000
0001
0000
0000
0000
0010
0000
0000
0000
0000
0000
0000
0000
3001
0000
0000
0000
0000
0000
0000
0000
0100
0000
0000
0000
0001
0000
0000
0000
0000
0000
0000
0000
0000
0000
0000
0000
,
1121
0000
0000
0000
0000
0000
0000
0000
0000
0000
0000
0000
0100
0000
0000
0000
1000
0000
0001
0000
0000
0000
0000
0000
0130
0000
0000
0000
0000
0000
0000
0000
0001
0000
0000
0000
0100
0000
0000
0000
0000
0000
0000
0000
0000
0000
0000
0000
1120
0000
0000
0000
0000
0000
0000
0000
0001
0000
0000
0000
0100
0000
0000
0000
1000
0000
0000
0000
0000
0000
0000
0000
0130
0000
0000
0000
0000
0000
0000
0000
0001
0000
0000
0000
0100
0000
0000
0000
0000
0000
0000
0000
0000
0000
0000
0000
1121
0000
0000
0000
0000
0000
0000
0000
0000
0000
0000
0000
0100
0000
0000
0000
0001
0000
1000
0000
0000
0000
0000
0000
0130
0000
0000
0000
0000
0000
0000
0000
1000
0000
0000
0000
0100
0000
0000
0000
0000
0000
0001
0000
0000
0000
0000
0000
1120
0000
0000
0000
0000
0000
0000
0000
0000
0000
0000
0000
0100
0000
0000
0000
0001
0000
0000
0000
0000
0000
0000
0000
0130
0000
0000
0000
0000
0000
0000
0000
1000
0000
0000
0000
0100
0000
0000
0000
0000
0000
0000
0000
0000
0000
0000
0000
,
2111
0000
0000
0000
0000
0000
0000
0000
0000
0000
0000
0000
0010
0000
0000
0000
0001
0000
0000
0000
0000
0000
0000
0000
3010
0000
0000
0000
0000
0000
0000
0000
0100
0000
0000
0000
0010
0000
0000
0000
0000
0000
0000
0000
0000
0000
0000
0000
2011
0000
0000
0000
0000
0000
0000
0000
0100
0000
0000
0000
0010
0000
0000
0000
0001
0000
0000
0000
0000
0000
0000
0000
3010
0000
0000
0000
0000
0000
0000
0000
0100
0000
0000
0000
0010
0000
0000
0000
0000
0000
1000
0000
0000
0000
0000
0000
0112
0000
0000
0000
0000
0000
0000
0000
0000
0000
0000
0000
0010
0000
0000
0000
1000
0000
0000
0000
0000
0000
0000
0000
0013
0000
0000
0000
0000
0000
0000
0000
0100
0000
0000
0000
0010
0000
0000
0000
0000
0000
0000
0000
0000
0000
0000
0000
1012
0000
0000
0000
0000
0000
0100
0000
0000
0000
0000
0000
0010
0000
0000
0000
1000
0000
0000
0000
0000
0000
0000
0000
0013
0000
0000
0000
0000
0000
0000
0000
0100
0000
0000
0000
0010
0000
0000
0000
0000
0000
0000
0000
0000
0000
0000
0000
,
1111
0000
0010
0001
0100
0000
1001
0000
0100
0001
0010
0000
1011
0000
0100
0001
0010
0000
0101
0000
1000
0001
0010
0000
1101
0000
0010
0001
1000
0000
0101
0000
0010
0001
1000
0000
0111
0000
0100
0001
1000
0000
0011
0000
0100
0001
0010
0000
,
1111
0000
0001
1000
0010
0000
1100
0000
0001
1000
0010
0000
1101
0000
0100
1000
0010
0000
1001
0000
0100
1000
0100
0000
1011
0000
0010
1000
0100
0000
1001
0000
0100
1000
0010
0000
1011
0000
0100
1000
0001
0000
1010
0000
0100
1000
0001
0000
,
1111
0000
1000
0010
0100
0000
0011
0000
1000
0010
1000
0000
0111
0000
0100
0010
1000
0000
0011
0000
0001
0010
0100
0000
1011
0000
1000
0010
0100
0000
0011
0000
1000
0010
1000
0000
0111
0000
0100
0010
1000
0000
0011
0000
1000
0010
0100
0000
,
1111
0000
0001
0100
0010
0000
1101
0000
1000
0100
0010
0000
1101
0000
1000
0100
0010
0000
1101
0000
0001
0100
0010
0000
1110
0000
1000
0100
0010
0000
0111
0000
1000
0100
1000
0000
1110
0000
0001
0100
0010
0000
1101
0000
1000
0100
0001
0000
,
2222
0000
3333
0000
1111
0010
1100
0001
0110
1000
1001
0100
0011
1000
0110
0001
,
2222
0000
3333
0000
1111
0100
0011
1000
1100
0001
0101
1000
0110
0001
1001
0100
,
2222
0000
3333
0000
1111
0001
0110
1000
1001
0100
0011
0001
0110
1000
1001
0010
,
0110
0000
1100
0000
1001
0000
0000
0000
1111
0000
0110
0000
1100
0000
1001
0000
1111
0101
1010
0101
1010
0101
1010
0101
1010
0101
1010
0101
1010
0101
1010
0101
,
2222
0000
3333
0000
1111
0100
1010
0001
0110
1000
0011
0100
1001
0010
1100
0001
,
2222
0000
3333
0000
1111
0010
1001
0001
0110
1000
1100
0001
0011
0010
1100
0001
,
2222
0000
3333
0000
1111
0001
1100
0010
0101
1000
1100
0010
1001
0010
1100
0001
,
1110
0000
0111
0000
1110
0000
0000
0000
0111
0000
1110
0000
0111
0000
0000
0000
1111
0001
0111
1000
1110
0001
0111
1000
1110
0001
0111
1000
1110
0001
0111
1000
,
1111
0100
1001
0010
1101
0010
1101
0010
1011
0100
1011
0100
1011
0010
1101
1000
,
1111
0001
0111
1000
0111
0001
1110
0001
1011
0100
1011
0100
1011
0001
0111
1000
,
1111
0001
1110
1000
0111
0001
1110
0001
1101
0010
0111
1000
1110
1000
0111
0010
,
1111
0001
1010
0100
1011
0001
1110
0010
1011
0100
1011
0100
1101
0110
1111
1111
,
1111
0000
0000
1100
0001
0000
1010
0000
0001
0110
0000
0000
1101
0000
0000
1010
0001
0000
0110
0000
0001
1100
0000
0000
1011
0000
0000
0110
0001
0000
1100
0000
0001
1010
0000
0000
0111
0000
0000
1100
0001
0000
1010
0000
0001
0110
0000
0000
,
1111
0000
0000
1001
0010
0000
0101
0000
0010
1001
0000
0000
1110
0000
0000
0101
0010
0000
1001
0000
0010
1100
0000
0000
0111
0000
0000
1001
0010
0000
1100
0000
0010
0101
0000
0000
1011
0000
0000
1100
0010
0000
1001
0000
0010
0101
0000
0000
,
1111
0000
0000
1010
0100
0000
0011
0000
0100
1001
0000
0000
1110
0000
0000
0011
0100
0000
1001
0000
0100
1010
0000
0000
0111
0000
0000
1001
0100
0000
1010
0000
0100
0011
0000
0000
1101
0000
0000
1010
0100
0000
0011
0000
0100
1001
0000
0000
,
1111
0000
0000
0000
0000
0000
0000
0000
0000
0000
0000
0000
0101
0000
0000
0000
1000
0000
0000
0000
0000
0000
0000
0000
0110
0000
0000
0000
0000
0000
0000
0000
1000
0000
0000
0000
0110
0000
0000
0000
0000
0000
0000
0000
0000
0000
0000
0000
1011
0000
0000
0000
0000
0000
0000
0000
0000
0000
0000
0000
0101
0000
0000
0000
1000
0000
0000
0000
0000
0000
0000
0000
0110
0000
0000
0000
0000
0000
0000
0000
1000
0000
0000
0000
0011
0000
0000
0000
0000
0000
0000
0000
0000
0000
0000
0000
1110
0000
0000
0000
0000
0000
0101
0000
0000
0000
0000
0000
0011
0000
0000
0000
1000
0000
0110
0000
0000
0000
0000
0000
0101
0000
0000
0000
0000
0000
0011
0000
1000
0000
0000
0000
0110
0000
0000
0000
0000
0000
0101
0000
0000
0000
0000
0000
1011
0000
0000
0000
0000
0000
0110
0000
0000
0000
0000
0000
0101
0000
0000
0000
1000
0000
0011
0000
0000
0000
0000
0000
0110
0000
0000
0000
0000
0000
0101
0000
1000
0000
0000
0000
0011
0000
0000
0000
0000
0000
0110
0000
0000
0000
0000
0000
,
1221
1331
2112
3113
1122
1133
1212
1313
,
2112
3113
2121
3131
1221
1331
1122
1133
,
2112
3113
1221
1331
2211
3311
2112
3113
,
1122
1133
1212
1313
2112
3113
2121
3131
,
1221
1331
1212
1313
1122
1133
2121
3131
,
2211
3311
2112
3113
1122
1133
1212
1313
,
2112
3113
2121
3131
1221
1331
1122
1133
,
2112
3113
2211
3311
2121
3131
2112
3113
,
1111
0011
1110
0101
1011
0110
1101
0011
1110
0101
1011
0110
1101
0011
1110
0101
,
1111
1010
0111
1100
1011
0110
1101
1010
1101
0110
1011
1100
0111
1010
1101
0110
,
1111
1001
0111
1100
1011
0101
1011
1100
0111
1001
1110
0101
1011
1100
0111
1001
,
1111
1010
0111
1001
0111
1010
1101
0011
1110
1001
0111
1010
1101
0011
1110
1001
,
1111
0000
0000
0101
0010
0000
1001
0000
0010
1100
0000
0000
0111
0000
0000
1001
0010
0000
1100
0000
0010
0101
0000
0000
1011
0000
0000
1100
0010
0000
0101
0000
0010
0101
0000
0000
1011
0000
0000
1100
0010
0000
0101
0000
0010
0101
0000
0000
,
1111
0000
0000
1010
0001
0000
1010
0000
0001
1100
0000
0000
0111
0000
0000
1010
0001
0000
1010
0000
0001
1100
0000
0000
0111
0000
0000
1010
0001
0000
1100
0000
0001
0110
0000
0000
1011
0000
0000
1100
0001
0000
0110
0000
0001
1010
0000
0000
,
1111
1111
1111
1111
1111
1111
1111
1111
1111
1111
1111
1111
1111
1111
1111
1111
1111
1111
1111
1111
1111
1111
1111
1111
,
1111
1111
1111
1111
1111
1111
1111
1111
1111
1111
1111
1111
1111
1111
1111
1111
1111
1111
1111
1111
1111
1111
1111
1111
1111
1111
1111
1111
1111
1111
1111
1111
,
2222
0000
3333
0000
1111
1000
0110
0010
1001
0001
1100
0100
1001
0001
0110
1000
,
2222
0000
3333
0000
1111
1000
1001
0100
0110
0001
1100
0010
1001
0010
1100
0001
,
2222
0000
3333
0000
1111
1000
1001
0010
0101
1000
1100
0010
1001
0100
1010
0100
,
2222
0000
3333
0000
1111
0010
0101
1000
1100
0001
0011
0100
1001
0110
1001
1100
,
2222
0000
3333
0000
1111
1000
0110
0001
0101
1000
1010
0001
0110
1000
1001
0010
,
2222
0000
3333
0000
1111
0001
0110
1000
1100
0001
0110
1000
1001
0100
0011
0001
,
2222
0000
3333
0000
1111
1000
0110
0001
1100
0010
1001
0010
1100
0001
0110
1001
,
0111
0000
1110
0000
0111
0000
0000
0000
1110
0000
0111
0000
1110
0000
0000
0000
1111
0100
1000
0011
0100
1000
0011
0100
1000
0011
0100
1000
0011
0100
1000
0011
,
1111
1001
1111
1001
1100
1100
1111
1100
1111
0011
1111
0011
0110
0110
1111
0110
,
1010
1010
1111
1010
0101
0101
1111
0101
1111
0011
1111
0011
1100
1100
1111
1100
,
1010
1010
1111
1010
0101
0101
1111
0101
1111
1100
1111
1100
1001
1001
1111
1001
,
0110
0110
1111
0110
1010
1010
1111
1010
1111
0101
1111
0101
1111
1111
1111
1111
,
1111
1100
1111
0110
1111
0011
1111
1001
1111
1010
1111
0110
1111
0101
1111
1001
,
1111
1010
1111
0110
1111
0101
1111
0011
1111
1100
1111
1010
1111
0110
1111
0101
,
1111
0011
1111
0110
1111
1100
1111
1010
1111
0110
1111
0101
1111
0011
1111
1100
,
1111
0010
0100
1001
0010
0100
1001
0010
0100
1001
0010
0100
1001
0010
0100
1001
0110
1000
0001
0110
1000
0001
0110
1000
0001
0110
1000
0001
0110
1000
0001
0110
,
1111
0000
0000
0000
0000
0000
0000
0000
1000
0000
0000
0000
0001
0000
0000
0000
1000
0000
0100
0000
0000
0000
0000
0000
1010
0000
0000
0000
0000
0000
0001
0000
1000
0000
0000
0000
0100
0000
0000
0000
1000
0000
0000
0000
0000
0000
0000
0000
1001
0000
0000
0000
0000
0000
0010
0000
1000
0000
0000
0000
0100
0000
0000
0000
1000
0000
0001
0000
0000
0000
0000
0000
1010
0000
0000
0000
0000
0000
0000
0000
1000
0000
0000
0000
0001
0000
0000
0000
1000
0000
0010
0000
0000
0000
0000
0000
1101
0000
0000
0000
0000
0000
0001
0000
1000
0000
0000
0000
0010
0000
0000
0000
1000
0000
0001
0000
0000
0000
0000
0000
1100
0000
0000
0000
0000
0000
0010
0000
1000
0000
0000
0000
0001
0000
0000
0000
1000
0000
0100
0000
0000
0000
0000
0000
1010
0000
0000
0000
0000
0000
0001
0000
1000
0000
0000
0000
0100
0000
0000
0000
1000
0000
0000
0000
0000
0000
0000
0000
1011
0000
0000
0000
0000
0000
0000
0000
1000
0000
0000
0000
0100
0000
0000
0000
1000
0000
0000
0000
0000
0000
0000
0000
,
1111
0000
0000
0000
0000
0000
0010
0000
0001
0000
0000
0000
1000
0000
0000
0000
0001
0000
0000
0000
0000
0000
0000
0000
0101
0000
0000
0000
0000
0000
1000
0000
0001
0000
0000
0000
0010
0000
0000
0000
0001
0000
0100
0000
0000
0000
0000
0000
1011
0000
0000
0000
0000
0000
0000
0000
0001
0000
0000
0000
0100
0000
0000
0000
0001
0000
0010
0000
0000
0000
0000
0000
1001
0000
0000
0000
0000
0000
0100
0000
0001
0000
0000
0000
0010
0000
0000
0000
0001
0000
0000
0000
0000
0000
0000
0000
1111
0000
0000
0000
0000
0000
1000
0000
0001
0000
0000
0000
0010
0000
0000
0000
0001
0000
0000
0000
0000
0000
0000
0000
1001
0000
0000
0000
0000
0000
0010
0000
0001
0000
0000
0000
0100
0000
0000
0000
0001
0000
0000
0000
0000
0000
0000
0000
1011
0000
0000
0000
0000
0000
0000
0000
0001
0000
0000
0000
0100
0000
0000
0000
0001
0000
0010
0000
0000
0000
0000
0000
1001
0000
0000
0000
0000
0000
0100
0000
0001
0000
0000
0000
0010
0000
0000
0000
0001
0000
0000
0000
0000
0000
0000
0000
,
1111
0000
0000
0000
0000
0000
0010
0000
0100
0000
0000
0000
1000
0000
0000
0000
0100
0000
0000
0000
0000
0000
0000
0000
0101
0000
0000
0000
0000
0000
1000
0000
0100
0000
0000
0000
0010
0000
0000
0000
0100
0000
0001
0000
0000
0000
0000
0000
1100
0000
0000
0000
0000
0000
0010
0000
0100
0000
0000
0000
0001
0000
0000
0000
0100
0000
1000
0000
0000
0000
0000
0000
0110
0000
0000
0000
0000
0000
1000
0000
0100
0000
0000
0000
0001
0000
0000
0000
0100
0000
0000
0000
0000
0000
0000
0000
1110
0000
0000
0000
0000
0000
0001
0000
0100
0000
0000
0000
0010
0000
0000
0000
0100
0000
0000
0000
0000
0000
0000
0000
0101
0000
0000
0000
0000
0000
0000
0000
0100
0000
0000
0000
1010
0000
0000
0000
0100
0000
0000
0000
0000
0000
0000
0000
0101
0000
0000
0000
0000
0000
1000
0000
0100
0000
0000
0000
0010
0000
0000
0000
0100
0000
0001
0000
0000
0000
0000
0000
1100
0000
0000
0000
0000
0000
0000
0000
0100
0000
0000
0000
0001
0000
0000
0000
0100
0000
0010
0000
0000
0000
0000
0000
,
1111
0000
0000
0000
0000
0000
0100
0000
0010
0000
0000
0000
1000
0000
0000
0000
0010
0000
0000
0000
0000
0000
0000
0000
0011
0000
0000
0000
0000
0000
1000
0000
0010
0000
0000
0000
0100
0000
0000
0000
0010
0000
1000
0000
0000
0000
0000
0000
0011
0000
0000
0000
0000
0000
0000
0000
0010
0000
0000
0000
1100
0000
0000
0000
0010
0000
0000
0000
0000
0000
0000
0000
0011
0000
0000
0000
0000
0000
1000
0000
0010
0000
0000
0000
0100
0000
0000
0000
0010
0000
0000
0000
0000
0000
0000
0000
1011
0000
0000
0000
0000
0000
0100
0000
0010
0000
0000
0000
0001
0000
0000
0000
0010
0000
0000
0000
0000
0000
0000
0000
1110
0000
0000
0000
0000
0000
0000
0000
0010
0000
0000
0000
0001
0000
0000
0000
0010
0000
1000
0000
0000
0000
0000
0000
0111
0000
0000
0000
0000
0000
0000
0000
0010
0000
0000
0000
1000
0000
0000
0000
0010
0000
0001
0000
0000
0000
0000
0000
0110
0000
0000
0000
0000
0000
1000
0000
0010
0000
0000
0000
0001
0000
0000
0000
0010
0000
0000
0000
0000
0000
0000
0000
,
1111
0000
0001
1010
0001
0000
0111
0000
0001
1100
0001
0000
1011
0000
0001
1010
0001
0000
0111
0000
0001
1100
0001
0000
1011
0000
0001
0110
0001
0000
1101
0000
0001
1100
0001
0000
1011
0000
0001
0110
0001
0000
1101
0000
0001
1010
0001
0000
,
1111
0000
0010
1001
0010
0000
0111
0000
0010
1001
0010
0000
1110
0000
0010
0101
0010
0000
1011
0000
0010
1100
0010
0000
1110
0000
0010
0101
0010
0000
1011
0000
0010
1100
0010
0000
1011
0000
0010
0101
0010
0000
1110
0000
0010
1001
0010
0000
,
1111
0000
0100
0011
0100
0000
1110
0000
0100
1001
0100
0000
0111
0000
0100
1010
0100
0000
1101
0000
0100
0011
0100
0000
1110
0000
0100
1001
0100
0000
0111
0000
0100
1010
0100
0000
1101
0000
0100
0011
0100
0000
1110
0000
0100
1001
0100
0000
,
1111
0000
0000
0000
0000
0000
0000
0000
1000
0000
0000
0000
0011
0000
0000
0000
1000
0000
0000
0000
0000
0000
0000
0000
1110
0000
0000
0000
0000
0000
0000
0000
1000
0000
0000
0000
0101
0000
0000
0000
1000
0000
0000
0000
0000
0000
0000
0000
1011
0000
0000
0000
0000
0000
0000
0000
1000
0000
0000
0000
0110
0000
0000
0000
1000
0000
0000
0000
0000
0000
0000
0000
1011
0000
0000
0000
0000
0000
0000
0000
1000
0000
0000
0000
0101
0000
0000
0000
1000
0000
0000
0000
0000
0000
0000
0000
1110
0000
0000
0000
0000
0000
0011
0000
1000
0000
0000
0000
0101
0000
0000
0000
1000
0000
0110
0000
0000
0000
0000
0000
1011
0000
0000
0000
0000
0000
0101
0000
1000
0000
0000
0000
0110
0000
0000
0000
1000
0000
0011
0000
0000
0000
0000
0000
1101
0000
0000
0000
0000
0000
0110
0000
1000
0000
0000
0000
0101
0000
0000
0000
1000
0000
0011
0000
0000
0000
0000
0000
1110
0000
0000
0000
0000
0000
0101
0000
1000
0000
0000
0000
0011
0000
0000
0000
1000
0000
0110
0000
0000
0000
0000
0000
,
1111
0000
0000
0000
,
0000
0000
0000
0000
,
0000
0000
0000
0000
,
0000
0000
0000
0000
,
0000
0000
0000
0000
,
0000
0000
0000
0000
,
0000
0000
0000
0000
,
0000
0000
0000
0000
,
0000
0000
0000
0000
,
0000
0000
0000
0000
,
0000
0000
0000
0000
,
0000
0000
0000
0000
,
0000
0000
0000
0000
,
0000
0000
0000
0000
,
0000
0000
0000
0000
,
0000
0000
0000
0000
,
2222
0000
0000
0000
,
0000
0000
0000
0000
,
0000
0000
0000
0000
,
0000
0000
0000
0000
,
0000
0000
0000
0000
,
0000
0000
0000
0000
,
0000
0000
0000
0000
,
0000
0000
0000
0000
,
0000
0000
0000
0000
,
0000
0000
0000
0000
,
0000
0000
0000
0000
,
0000
0000
0000
0000
,
0000
0000
0000
0000
,
0000
0000
0000
0000
,
0000
0000
0000
0000
,
0000
0000
0000
0000
,
3333
0000
0000
0000
;

//---------------dance-single - ----------------
#NOTES:
     dance-single:
     :
     Medium:
     10:
     0.838,1.000,0.865,0.304,0.292,603.000,111.000,39.000,0.000,0.000:
0000
0000
0000
0000
,
0000
0000
0000
0000
,
0000
0000
0000
0000
,
0000
0000
0000
0000
,
0220
0000
0000
0330
,
1001
1001
1001
1001
1001
1001
1001
1001
,
1001
1001
1001
1001
1001
1001
1001
1001
,
1001
1001
1001
1001
1001
1001
1001
1001
,
1001
1001
1001
1001
1001
1001
1001
1001
,
1002
0000
0013
0100
1000
0010
0100
0001
,
0201
0000
0310
1000
0001
0010
0100
1000
,
1020
0000
0130
0001
1000
0100
0010
0001
,
0201
0000
0310
1000
0001
0010
0100
1000
,
1002
0000
0103
0010
1000
0100
0010
0001
,
0021
0000
0130
1000
0001
0100
0010
1000
,
1200
0000
0310
0001
1000
0010
0100
0001
,
2001
0000
3100
0010
0001
0100
0110
0000
,
1000
0000
1000
0001
0000
0000
0010
0000
0010
0100
0000
0000
,
1000
0000
1000
0010
0000
0000
0100
0000
0100
0001
0000
0000
,
0010
0000
0010
0100
0000
0000
1000
0000
1000
0001
0000
0000
,
0100
0000
0100
0010
0000
0000
1000
0000
1000
0100
0000
0000
,
1000
0001
0000
1000
0001
0000
0000
0000
0100
0010
0000
0100
0010
0000
0000
0000
,
1000
0100
0000
1000
0001
0000
0000
0000
0001
0010
0000
0001
0100
0000
0000
0000
,
0010
1000
0000
0010
0100
0000
0000
0000
1000
0001
0000
1000
0100
0000
0000
0000
,
0010
0001
0000
0001
1000
0000
0000
0000
0010
0100
0000
0001
0100
0000
0000
0000
,
1000
0100
1000
0000
1100
0000
0000
0000
0001
0010
0001
0000
0011
0000
0000
0000
,
0100
0010
0100
0000
0110
0000
0000
0000
1000
0001
0100
0000
0101
0000
0000
0000
,
0001
1000
0010
0000
1010
0000
0000
0000
1000
0100
0010
0000
0011
0000
0000
0000
,
0001
0010
0100
0000
1100
0000
0000
0000
1000
0001
0100
0000
0110
0000
0000
0000
,
1001
0100
0010
0001
0100
1000
0100
0001
,
0010
0100
1000
0100
1002
1000
0010
1003
,
1100
0010
0001
0100
1000
0100
0001
0010
,
0100
1000
0010
0100
0102
0100
1000
0103
,
0010
0001
0000
0000
0001
0100
0000
0000
0100
0010
0000
0000
0010
1000
0000
0000
,
0100
1000
0000
0000
0001
0100
0000
0000
0010
1000
0000
0000
0100
1000
0000
0000
,
0001
0010
0000
0000
0010
0001
0000
0000
0100
0010
0000
0000
1000
0100
0000
0000
,
0100
0010
0100
0000
1000
0001
1000
0000
0010
0100
0010
0000
1000
0100
1000
0000
,
1002
0000
0013
0100
1000
0010
0100
0001
,
2001
0000
3100
0010
0001
0100
0010
1000
,
1200
0000
0310
0001
1000
0010
0100
0001
,
0021
0000
0130
1000
0001
0100
0010
0000
,
1200
0000
0310
0001
1000
0010
0100
0100
,
1002
0000
0013
0100
1000
0010
0100
0001
,
2100
0000
3010
0100
0001
0010
0100
1000
,
1020
0000
0130
0001
1000
0100
0010
0000
,
0011
0000
0001
0100
0000
0010
1000
0000
,
1100
0000
0001
0100
0000
1000
0100
0000
,
0110
0000
0001
1000
0000
0100
1000
0000
,
0110
0000
0001
0100
0000
0010
1000
0000
,
0100
0010
0100
0000
1000
0100
1000
0000
0001
1000
0001
0000
0010
0001
0010
0000
,
0001
0100
0001
0000
0100
0010
0100
0000
0010
1000
0010
0000
1000
0100
1000
0000
,
0100
0000
0100
0010
0000
0010
0001
0000
0001
0100
0000
0100
,
0010
0000
0010
1000
0000
1000
0001
0000
0001
0010
0000
0010
,
0000
0100
0000
0100
0000
0100
0000
0100
,
0000
0001
0000
0001
0000
0001
0000
0001
,
0000
0010
0000
0010
0000
0100
0000
0100
,
0000
1000
0000
1000
0000
0010
0000
0010
,
0000
0100
0000
0100
0000
0001
0000
0001
,
0000
1000
0000
1000
0000
0100
0000
0100
,
0000
0010
0000
0001
0000
0001
0000
0100
,
0000
0010
0000
0010
0000
1000
0000
0001
,
2000
3100
0002
0013
,
0200
1300
0002
0103
,
0020
0031
2000
3100
,
0020
0031
0200
0310
,
2000
0000
3001
0000
0010
0100
0010
0100
,
0001
0010
0001
0010
0100
1000
0100
1000
,
0010
0100
0001
1000
0010
0100
0001
1000
,
0100
1000
0100
0000
1000
0001
1000
0000
0001
0010
0001
0000
0010
0100
0010
0000
,
0012
0000
0103
0010
1000
0100
1000
0001
,
0201
0000
0310
1000
0001
0010
0100
1000
,
1200
0000
0310
0001
1000
0010
0100
0001
,
0021
0000
0130
1000
0001
0100
0001
0010
,
0210
0000
1300
0010
0100
0001
0010
0100
,
2100
0000
3001
0100
1000
0100
0001
0010
,
0210
0000
1300
0001
0100
0010
1000
0100
,
0120
0000
0031
0100
0010
1000
0100
0000
,
1001
0110
1001
0110
,
1100
0011
1100
0011
,
1010
0101
1010
0101
,
1001
0110
1001
0110
,
1100
1000
1001
0001
0101
0100
0110
0010
,
1010
1000
1100
0100
0110
0010
0011
0001
,
0101
0100
0110
0010
1010
1000
1001
0001
,
0101
0100
0110
0010
1010
1000
1100
0100
,
0110
0000
0001
1000
0000
0100
1000
0000
,
1010
0000
0001
0100
0000
0010
1000
0000
,
1100
0000
0001
0100
0000
0010
0001
0000
,
1001
0000
0100
0010
0000
0100
1000
0000
,
0010
0000
0100
0000
0001
0000
1000
0000
0100
0000
0010
0000
0001
1000
0001
0000
,
0100
0000
0010
0000
1000
0000
0100
0000
0010
0000
0001
0000
0100
0010
0100
0000
,
0001
0000
0010
0000
0100
0000
1000
0000
0010
0000
0100
0000
0001
1000
0001
0000
,
0010
0000
0100
0000
1000
0000
0010
0000
1000
0001
1000
0001
1000
0001
1000
0001
,
0000
0000
0000
0000
,
0000
0000
0000
0000
,
0000
0000
0000
0000
,
0000
0000
0000
0000
,
0000
0000
0000
0000
,
0000
0000
0000
0000
,
0000
0000
0000
0000
,
0000
0000
0000
0000
,
0000
0000
0000
0000
,
0000
0000
0000
0000
,
0000
0000
0000
0000
,
0000
0000
0000
0000
,
0000
0000
0000
0000
,
0000
0000
0000
0000
,
0000
0000
0000
0000
,
0000
0000
0000
0000
,
2002
0000
0000
0000
,
0000
0000
0000
0000
,
0000
0000
0000
0000
,
0000
0000
0000
0000
,
0000
0000
0000
0000
,
0000
0000
0000
0000
,
0000
0000
0000
0000
,
0000
0000
0000
0000
,
0000
0000
0000
0000
,
0000
0000
0000
0000
,
0000
0000
0000
0000
,
0000
0000
0000
0000
,
0000
0000
0000
0000
,
0000
0000
0000
0000
,
0000
0000
0000
0000
,
0000
0000
0000
0000
,
3003
0000
0000
0000
;

//---------------dance-single - ----------------
#NOTES:
     dance-single:
     :
     Easy:
     9:
     0.689,1.000,0.569,0.460,0.016,487.000,73.000,59.000,0.000,0.000:
0000
0000
0000
0000
,
0000
0000
0000
0000
,
0000
0000
0000
0000
,
0000
0000
0000
0000
,
0220
0000
0000
0330
,
1000
0001
1000
0001
1000
0001
1000
0001
,
1000
0001
1000
0001
1000
0001
1000
0001
,
1000
0001
1000
0001
1000
0001
1000
0001
,
1000
0001
1000
0001
1000
0001
1000
0001
,
1002
0000
0013
0100
1000
0100
1000
0000
,
0201
0000
0310
0100
0001
0010
0001
0000
,
1020
0000
0130
0001
1000
0100
1000
0000
,
0120
0000
0031
1000
0001
0010
0100
0000
,
1002
0000
0103
0010
0100
0001
0010
0000
,
2100
0000
3010
0100
0001
0100
0001
0000
,
0120
0000
1030
0001
1000
0001
0010
0000
,
0210
0000
1300
0001
0010
0001
0100
0000
,
1100
0000
1010
0000
,
0110
0000
0101
0000
,
1001
0000
1010
0000
,
0110
0000
1100
0000
,
1000
0100
1000
0000
0001
0100
0001
0000
,
1000
0100
0001
0000
0001
0100
1000
0000
,
0010
0100
0001
0000
0001
0010
0100
0000
,
0100
1000
0010
0000
0010
0100
0001
0000
,
2200
3300
2002
3003
,
0022
0033
0220
0330
,
2200
3300
2020
3030
,
1000
0100
0010
0001
2002
0000
3003
0000
,
0010
0100
0001
1000
0010
0100
0001
1000
,
0100
0010
0001
0100
0120
0000
0000
0000
,
1030
0001
0010
0100
1000
0010
0100
0001
,
0100
0001
1000
0100
0120
0000
0000
0000
,
0032
0000
0203
0000
0320
0000
2030
0100
,
3200
0000
0320
0000
0032
0000
0203
0010
,
0320
0000
2030
0000
3002
0000
0023
0100
,
0230
0000
2300
0000
3020
0100
0130
0100
,
1002
0000
0013
0100
1000
0100
1000
0000
,
0120
0000
1030
0001
1000
0100
0010
0000
,
0012
0000
0103
0010
1000
0100
1000
0000
,
0102
0000
1003
0100
1000
0010
0100
0000
,
2001
0000
3100
0010
0001
0001
0010
0000
,
1200
0000
0310
0001
0001
1000
0010
0000
,
0210
0000
0301
1000
1000
0001
0010
0000
,
0210
0000
1300
0001
1000
0100
0010
0000
,
0011
0000
0001
1000
0000
0100
1000
0000
,
0010
0000
0100
0001
0000
1000
0100
0000
,
1001
0000
1000
0100
0000
0010
0001
0000
,
0100
0000
0010
1000
0000
0100
1000
0000
,
0010
0100
0001
0010
0100
1000
0100
0010
,
0001
0100
1000
0100
0001
0010
0100
1000
,
1000
0100
0010
1000
0010
0001
0100
0010
,
1000
0100
1000
0001
0010
0100
1000
0010
,
0110
0000
0000
0000
,
0000
0000
0000
0000
,
0000
0000
1000
1000
,
1000
1000
1000
1000
,
1001
0000
0000
0000
,
0000
0000
0000
0000
,
0000
0000
0000
0000
0000
0000
0000
0110
,
0000
0000
0000
0000
,
1000
1000
1000
0000
0001
0001
0001
0000
,
0010
0010
0010
0000
0100
0100
0100
0000
,
1000
1000
1000
0000
0010
0010
0010
0000
,
0100
0100
0100
0000
0001
0001
0001
0000
,
1000
1000
1000
0000
0100
0010
0100
0010
,
0001
1000
0001
1000
0010
0100
0010
0100
,
1000
0100
1000
0100
0001
1000
0001
1000
,
0010
1000
0010
1000
0100
1000
0100
1000
,
1002
0000
0103
0010
0010
1000
0100
0000
,
2001
0000
3001
0010
0100
1000
0100
0000
,
1002
0000
0013
0100
1000
1000
0100
0000
,
0120
0000
0031
1000
0001
0010
0100
0000
,
2100
0000
3010
0100
0001
0010
0001
0000
,
0120
0000
1030
0100
1000
1000
0001
0000
,
0210
0000
0301
1000
0001
0010
0100
0000
,
2100
0000
3010
0100
0001
0001
0010
0000
,
0000
0110
1001
0110
,
1100
0011
1100
0011
,
1010
0101
1010
0101
,
1001
0110
1001
0110
,
1001
1000
1000
1000
1100
0100
0100
0100
,
0110
0010
0010
0010
0011
0001
0001
0001
,
0101
0100
0100
0100
0110
0010
0010
0010
,
1010
1000
1000
1000
1001
0001
0001
0001
,
0101
0000
0001
0010
0000
0100
1000
0000
,
0100
0000
0010
0001
0000
0010
0100
0000
,
1100
0000
0001
0100
0000
0010
0100
0000
,
1000
0000
0100
0010
0000
0001
1000
0000
,
0100
0010
0100
0100
0001
0010
0001
0001
,
1000
0100
1000
1000
0010
0100
0010
0010
,
1000
0100
0010
0001
0100
0010
1000
0001
,
0010
0000
0100
0000
1000
0000
0010
0000
1000
0001
1000
0001
1000
0001
1000
0001
,
0000
0000
0000
0000
,
0000
0000
0000
0000
,
0000
0000
0000
0000
,
0000
0000
0000
0000
,
0000
0000
0000
0000
,
0000
0000
0000
0000
,
0000
0000
0000
0000
,
0000
0000
0000
0000
,
0000
0000
0000
0000
,
0000
0000
0000
0000
,
0000
0000
0000
0000
,
0000
0000
0000
0000
,
0000
0000
0000
0000
,
0000
0000
0000
0000
,
0000
0000
0000
0000
,
0000
0000
0000
0000
,
2002
0000
0000
0000
,
0000
0000
0000
0000
,
0000
0000
0000
0000
,
0000
0000
0000
0000
,
0000
0000
0000
0000
,
0000
0000
0000
0000
,
0000
0000
0000
0000
,
0000
0000
0000
0000
,
0000
0000
0000
0000
,
0000
0000
0000
0000
,
0000
0000
0000
0000
,
0000
0000
0000
0000
,
0000
0000
0000
0000
,
0000
0000
0000
0000
,
0000
0000
0000
0000
,
0000
0000
0000
0000
,
3003
0000
0000
0000
;

//---------------dance-single - ----------------
#NOTES:
     dance-single:
     :
     Challenge:
     16:
     1.000,1.000,1.000,1.000,1.000,1156.000,474.000,174.000,0.000,190.000:
0000
0000
0000
0000
,
0000
0000
0000
0000
,
0000
0000
0000
0000
,
0000
0000
0000
0000
,
2222
0000
0000
3333
,
1100
0011
1100
0011
1100
0011
1100
0011
1100
0011
1100
0011
1100
0011
1100
0011
,
1100
0011
1100
0011
1100
0011
1100
0011
1100
0011
1100
0011
1100
0011
1100
0011
,
1100
0011
1100
0011
1100
0011
1100
0011
1100
0011
1100
0011
1100
0011
1100
0011
,
1100
0011
1100
0011
1100
0011
1100
0011
1100
0011
1100
0011
1100
0011
1100
0011
,
2222
0000
3333
0000
1001
0010
0100
1000
0010
0100
0001
1000
0100
0010
0001
0100
,
2222
0000
3333
0000
1010
0100
0001
0010
0100
1000
0010
0100
0001
1000
0100
0010
,
2222
0000
3333
0000
1001
0100
0010
0001
0100
0010
1000
0100
0010
0001
0100
1000
,
2222
0000
3333
0000
0110
0001
1000
0100
0010
0001
0100
1000
0101
0010
1100
0001
,
2222
0000
3333
0000
0110
1000
0001
0010
0100
1000
0010
0100
1000
0010
0001
1000
,
2222
0000
3333
0000
1100
0001
0010
1000
0100
0010
0001
1000
0010
0001
0100
0010
,
2222
0000
3333
0000
1100
0001
0010
0001
0100
0010
1000
0100
0001
1000
0010
0001
,
1111
0000
1001
0000
1111
0000
0110
0000
1100
0011
1100
0011
1100
0011
1100
0011
,
1001
0100
0010
0100
1001
0010
0000
0000
1100
0010
0001
0010
1100
0001
0000
0000
,
0011
0100
1000
0100
0011
1000
0000
0000
0110
1000
0001
1000
0110
0001
0000
0000
,
1010
0001
0100
0001
1010
0100
0000
0000
0101
1000
0010
1000
0101
0010
0000
0000
,
1100
0001
0010
0001
1100
0010
0000
0000
0011
1000
0100
1000
0011
0100
0000
0000
,
1001
0010
0100
1000
0010
0100
0001
1000
0110
0001
0100
1000
0010
0100
0001
1000
,
0110
0001
0100
0010
1000
0100
0010
0001
1100
0010
1000
0001
0010
0100
1000
0010
,
1001
0100
0010
1000
0001
0010
0100
1000
0110
0001
1000
0010
0100
1000
0001
0010
,
1100
1000
0001
0100
0010
1000
0100
0010
1001
0010
0100
1000
0001
0100
0010
0001
,
1111
1000
0010
0100
0001
1000
0100
0010
1111
1000
0001
0010
0100
1000
0001
0100
,
1111
1000
0010
0100
0001
0100
0010
1000
1111
0001
0100
0010
1000
0100
0010
0001
,
1111
1000
0010
0100
1000
0100
0010
0001
1111
0100
0010
1000
0001
0010
0100
1000
,
1110
0000
0111
0000
1110
0000
0111
0000
1100
0011
1100
0011
1100
0011
1100
0011
,
1111
0000
0001
1010
0001
0000
0111
0000
1011
0000
0001
0110
0001
0000
1011
0000
,
1111
0000
0100
1010
0100
0000
0111
0000
2122
0000
0100
0000
0100
0000
3133
0000
,
1111
0000
1000
0110
1000
0000
1101
0000
1110
0000
1000
0101
1000
0000
1110
0000
,
1111
0000
0010
1100
0010
0000
1011
0000
2210
0000
0010
0000
0010
0000
3310
0000
,
0110
1000
0110
1000
0011
0100
0011
0100
1001
0010
1001
0010
0101
1000
0101
1000
,
0011
0100
0011
0100
0011
1000
0011
1000
0101
0010
0101
0010
1001
0100
1001
0100
,
0011
1000
0011
1000
0101
0010
0101
0010
1001
0100
1001
0100
0011
1000
0011
1000
,
1100
0011
1100
0011
1100
0011
1100
0011
1100
0011
1100
0011
1100
0011
1100
0011
,
2222
0000
3333
0000
1100
0001
0010
0100
1000
0001
0100
0010
0001
0100
0010
0100
,
2222
0000
3333
0000
1001
0100
0010
0001
0100
1000
0010
0100
0001
1000
0100
0010
,
2222
0000
3333
0000
1010
0100
0001
0010
0100
1000
0001
0100
0010
0001
0100
0010
,
2222
0000
3333
0000
0101
1000
0010
0100
0001
0010
0100
1000
0010
0001
0100
0010
,
2222
0000
3333
0000
0011
0100
1000
0001
0100
0010
0001
1000
0100
0010
1000
0001
,
2222
0000
3333
0000
1010
0100
0001
1000
0100
1000
0010
0100
0001
0010
0100
1000
,
2222
0000
3333
0000
1100
0001
0100
0010
0001
0100
0010
1000
0001
0010
0100
1000
,
1111
0000
1111
0000
1111
0000
1111
0000
0011
1100
0011
1100
0011
1100
0011
1100
,
2210
0001
3310
0001
1110
0001
2210
0001
3310
0001
1110
0001
2210
0001
3310
0001
,
0122
1000
0133
1000
0111
1000
0122
1000
0133
1000
0111
1000
0122
1000
0133
1000
,
2201
0010
3301
0010
1101
0010
2201
0010
3301
0010
1101
0010
2201
0010
3301
0010
,
0122
1000
0133
1000
0111
1000
0122
1000
0133
1000
0111
1000
0122
1000
0133
1000
,
1111
1000
0100
0010
0001
0100
0010
1000
0011
1100
0011
1100
0011
1100
0011
1100
,
1111
0001
0100
0010
1000
0100
0010
0001
0110
1001
0110
1001
0110
1001
0110
1001
,
1111
0100
0010
1000
0001
0010
0100
1000
0011
1100
0011
1100
0011
1100
0011
1100
,
0011
1100
0011
1100
0011
1100
0011
1100
0011
1100
0011
1100
0011
1100
0011
1100
,
1111
2000
0100
3200
0010
0320
0001
0032
,
0100
0203
0010
0320
1000
2030
0001
3002
,
0010
0023
0100
0230
1000
2300
0010
3020
,
0100
0230
0001
0302
1000
2003
0100
3200
,
0010
0320
0001
0032
0100
0203
0010
0320
,
1000
2030
0001
3002
0010
0023
0100
0230
,
1000
2300
0010
3020
0001
0032
0100
0203
,
0010
0320
1000
2030
0001
3002
0010
0013
,
1111
1000
0010
0100
0001
1000
0100
0010
0001
0100
1000
0100
0010
1000
0001
0010
,
0100
1000
0001
0100
0010
0001
0100
1000
0010
0100
0001
1000
0100
0001
0010
0100
,
1111
1000
0010
0100
0001
1000
0100
0100
0010
0001
0100
1000
0010
0100
0001
0010
,
1111
1000
0100
0010
0001
0100
1000
0010
0100
0001
0010
0100
1000
0010
0100
0001
,
1111
0011
1100
0011
1010
1100
0110
0011
,
1100
0011
1100
0011
1100
0011
1100
0011
1100
0011
1100
0011
1100
0011
1100
0011
,
1100
0011
1100
0011
1100
0011
1100
0011
1100
0011
1100
0011
1100
0011
1100
0011
,
0110
1001
0110
1001
0110
1001
0110
1001
0110
1001
0110
1001
0110
1001
0110
1001
,
2222
0000
3333
0000
0110
1000
0100
0010
0001
0100
1000
0010
0100
0001
1000
0100
,
2222
0000
3333
0000
1001
0100
0010
0001
0100
1000
0100
0010
1000
0001
0010
0100
,
2222
0000
3333
0000
1000
0001
0010
0100
1000
0001
0100
0010
0001
0100
1000
0010
,
2222
0000
3333
0000
1010
0100
0001
0010
0100
1000
0001
0100
0010
0001
0100
1000
,
2222
0000
3333
0000
1100
0001
0010
0100
1000
0001
0100
0010
0001
0100
1000
0010
,
2222
0000
3333
0000
0011
0100
0001
0010
0001
0100
1000
0010
0100
0001
0010
0100
,
2222
0000
3333
0000
1010
0100
0001
0010
0100
1000
0001
0100
0010
0001
0100
0010
,
1100
0000
0001
0010
1001
0000
1100
0000
0110
1001
0110
1001
0220
2002
3333
0000
,
1111
1100
1111
0110
1111
0011
1111
0110
,
1111
1100
1111
0110
1111
0011
1111
1001
,
1111
1010
1111
0110
1111
0101
1111
1001
,
1111
1010
1111
0110
1111
1100
1111
1001
,
1111
1111
1111
1111
1111
1111
1111
1111
,
1111
1111
1111
1111
1111
1111
1111
1111
,
1111
1111
1111
1111
1111
1111
1111
1111
,
1111
0000
1111
0000
1111
0000
1111
0000
0011
1100
0011
1100
0011
1100
0011
1100
,
1111
0001
0100
0010
1000
0100
0010
0001
0110
1000
0001
0100
0010
1000
0001
0010
,
1100
1000
0010
0100
0001
1000
0100
0001
0110
1000
0001
0100
0010
1000
0001
0010
,
1100
1000
0010
0100
0001
1000
0100
0010
1001
0010
0100
1000
0001
0100
0010
0100
,
1001
0010
0100
1000
0100
0010
0001
0100
1010
0001
0010
0100
1000
0001
0100
0010
,
1022
0100
1033
0100
1011
0100
1022
0100
1033
0100
1011
0100
1022
0100
1033
0100
,
2210
0001
3310
0001
1110
0001
2210
0001
3310
0001
1110
0001
2210
0001
3310
0001
,
0122
1000
0133
1000
0111
1000
0122
1000
0133
1000
0111
1000
0122
1000
0133
1000
,
1100
0011
1100
0011
1100
0011
1100
0011
1100
0011
1100
0011
1100
0011
1100
0011
,
0000
0000
0000
0000
,
0000
0000
0000
0000
,
0000
0000
0000
0000
,
0000
0000
0000
0000
,
0000
0000
0000
0000
,
0000
0000
0000
0000
,
0000
0000
0000
0000
,
0000
0000
0000
0000
,
0000
0000
0000
0000
,
0000
0000
0000
0000
,
0000
0000
0000
0000
,
0000
0000
0000
0000
,
0000
0000
0000
0000
,
0000
0000
0000
0000
,
0000
0000
0000
0000
,
0000
0000
0000
0000
,
2222
0000
0000
0000
,
0000
0000
0000
0000
,
0000
0000
0000
0000
,
0000
0000
0000
0000
,
0000
0000
0000
0000
,
0000
0000
0000
0000
,
0000
0000
0000
0000
,
0000
0000
0000
0000
,
0000
0000
0000
0000
,
0000
0000
0000
0000
,
0000
0000
0000
0000
,
0000
0000
0000
0000
,
0000
0000
0000
0000
,
0000
0000
0000
0000
,
0000
0000
0000
0000
,
0000
0000
0000
0000
,
3333
0000
0000
0000
;

//---------------dance-double - ----------------
#NOTES:
     dance-double:
     :
     Hard:
     14:
     1.000,1.000,0.966,0.623,1.000,858.000,124.000,80.000,0.000,18.000:
00000000
00000000
00000000
00000000
,
00000000
00000000
00000000
00000000
,
00000000
00000000
00000000
00000000
,
00000000
00000000
00000000
00000000
,
00122100
00000000
00000000
00033000
,
00010000
00001000
00010000
00001000
00010000
00001000
00010000
00001000
00010000
00001000
00010000
00001000
00010000
00001000
00010000
00001000
,
00010000
00001000
00010000
00001000
00010000
00001000
00010000
00001000
00010000
00001000
00010000
00001000
00010000
00001000
00010000
00001000
,
00010000
00001000
00010000
00001000
00010000
00001000
00010000
00001000
00010000
00001000
00010000
00001000
00010000
00001000
00010000
00001000
,
00010000
00001000
00010000
00001000
00010000
00001000
00010000
00001000
00010000
00001000
00010000
00001000
00010000
00001000
00010000
00001000
,
00022000
00033000
00110000
01000000
10000000
00100000
00010000
00001000
,
00002200
00003300
00000110
00000001
00000100
00000010
00000100
00001000
,
00022000
00033000
00110000
01000000
10000000
01000000
00100000
00010000
,
00022000
00033000
00001100
00000010
00000001
00001000
00000100
00010000
,
00022000
00033000
00110000
00010000
01000000
00100000
10000000
01000000
,
00220000
00330000
00011000
00001000
00000100
00000010
00000001
00000100
,
00002200
00003300
00011000
00100000
01000000
10000000
00010000
00100000
,
00022000
00000000
00033000
00000000
00010100
00000000
00001000
00000000
00000010
00000100
00000010
00000100
00000001
00001000
00000001
00001000
,
00000100
00000010
00000100
00000010
00000100
00000000
00001000
00010000
00001000
00010000
00001000
00000000
,
00100000
00010000
00100000
00010000
00100000
00000000
01000000
10000000
01000000
10000000
00010000
00000000
,
00100000
00001000
00100000
00001000
00100000
00000000
00000100
00010000
00000100
00010000
00000100
00000000
,
00001000
00000010
00001000
00000010
00001000
00000000
00000100
00010000
00000100
00010000
00000100
00000000
,
01000000
00010000
01000000
00010000
00000000
10000000
01000000
10000000
00010000
00100000
00001000
00010000
00000000
00001000
00010000
00000100
,
00010000
00000010
00000100
00000010
00000000
00001000
00000100
00001000
00000001
00000100
00000001
00000000
00000000
00000010
00000100
00001000
,
00010000
00100000
00010000
00100000
00000000
01000000
10000000
01000000
10000000
00010000
00000000
01000000
00001000
00100000
00001000
00100000
,
00000000
00010000
00001000
00010000
00001000
00000100
00000010
00000100
00000000
00000010
00000001
00000010
00000001
00001000
00000100
00001000
,
00000100
00010000
00001000
00000000
00100000
01000000
10000000
00000000
00010000
01000000
00100000
00000000
00010000
00001000
00000100
00000000
,
00000010
00000001
00001000
00000000
00000100
00010000
00001000
00000000
00100000
00010000
01000000
00000000
00100000
10000000
00010000
00000000
,
01000000
00100000
00010000
00000000
00001000
00000100
00000010
00000000
00000001
00000100
00001000
00000000
00010000
00100000
01000000
00000000
,
10000000
00010000
00100000
00000000
00001000
00010000
00000100
00000000
00001000
00000010
00000100
00000000
00000001
00000010
00000100
00000000
,
00011000
00000000
00010000
00001000
00010000
00000000
00011000
00000000
00011000
00000000
00010000
00001000
00010000
00000000
00011000
00000000
,
01100000
00000000
01000000
00100000
01000000
00000000
01100000
00000000
01200000
00000000
01000000
00000000
01000000
00000000
01300000
00000000
,
11000000
00000000
10000000
01000000
10000000
00000000
11000000
00000000
11000000
00000000
10000000
01000000
10000000
00000000
11000000
00000000
,
10010000
00000000
00010000
10000000
00010000
00000000
10010000
00000000
20010000
00000000
00010000
00000000
00010000
00000000
30010000
00000000
,
01000000
00100000
01000000
00000000
00001000
00010000
00000100
00000000
00001000
00000010
00001000
00000010
00001000
00000010
00000100
00000000
,
00000001
00000010
00000100
00000000
00001000
00010000
00100000
00000000
01000000
10000000
01000000
10000000
01000000
10000000
00010000
00000000
,
01000000
00100000
10000000
00000000
00010000
00100000
00001000
00000000
00010000
00000100
00010000
00000100
00010000
00000100
00001000
00000000
,
00010000
00001000
00010000
00001000
00010000
00001000
00010000
00001000
00010000
00001000
00010000
00001000
00010000
00001000
00010000
00001000
,
00022000
00033000
00110000
01000000
10000000
00100000
01000000
00001000
,
00022000
00033000
00001100
00000010
00000001
00000100
00001000
00010000
,
00220000
00330000
01100000
10000000
00010000
01000000
00100000
00010000
,
00002200
00003300
00000110
00000001
00000100
00001000
00011000
00100000
,
00220000
00330000
01100000
10000000
01000000
00100000
00010000
00001000
,
00002200
00003300
00000101
00000001
00000100
00001000
00010000
00100000
,
02200000
03300000
10010000
01000000
00100000
00010000
00001000
00000100
,
00000110
00000000
00000010
00000000
00000001
00000100
00000001
00000000
00000100
00001000
00000100
00001000
00001100
00000000
00000000
00000000
,
00011000
00000100
00010000
00100000
00001000
00000100
00010000
00100000
,
00001000
00000100
00010000
00100000
00001000
00000100
00022000
00033000
,
00100100
00010000
00000100
00001000
00100000
00010000
00000100
00001000
,
00100000
00010000
00000100
00001000
00100000
00010000
00022000
00033000
,
00100000
00000100
00100000
00000100
00100000
00000100
00100000
00000100
00100000
00000100
00100000
00000100
00100000
00000100
00100000
00000100
,
00010000
00001000
00010000
00001000
00010000
00001000
00010000
00001000
00010000
00001000
00010000
00001000
00010000
00001000
00010000
00001000
,
00010000
00001000
00010000
00001000
00010000
00001000
00010000
00001000
00010000
00001000
00010000
00001000
00010000
00001000
00010000
00001000
,
00100000
00000100
00100000
00000100
00100000
00000100
00010000
00001000
00010000
00001000
00010000
00001000
,
00021000
00000000
02030000
00000000
03200000
00000000
20300000
01000000
,
32000000
00000000
03200000
00000000
00320000
00000000
00032000
00000100
,
00003200
00000000
00000320
00000000
00000032
00000000
00000203
00001000
,
00002300
00000000
00023000
00000000
02030000
00000000
03200000
00010000
,
00320000
00000000
00032000
00000000
00003020
00000000
00000032
00001000
,
00002003
00003200
00020300
00032000
,
00103000
00000000
00010000
00000000
10000000
00000000
01000000
00000000
00100000
00000000
00010000
00000000
00001000
00000000
00000100
00000010
,
00000001
00000000
00000100
00000000
00001000
00000000
00010000
00000000
00100000
00000000
01000000
10000000
01000000
10000000
01000000
00000000
,
10000000
00010000
10000000
01000000
00100000
00010000
00001000
00000100
00000010
00000001
00000100
00000010
,
00001000
00000100
00010000
00001000
00100000
00010000
01000000
00100000
10000000
01000000
10000000
00010000
,
00100000
01000000
00001000
00010000
00000010
00000100
00000001
00001000
00000100
00010000
00001000
00100000
,
01000000
10000000
00010000
01000000
00100000
00010000
00001000
00000100
00000010
00000001
00000100
00000010
,
00001010
00000000
00001000
00000000
01000000
00000000
00100000
00000000
10000000
00000000
01000000
00100000
01000000
00100000
00010000
00000000
,
00001000
00010000
00001000
00010000
00001000
00010000
00001000
00010000
00001000
00010000
00001000
00010000
00001000
00010000
00001000
00010000
,
00011000
00000000
00100000
00000000
01000000
00000000
10000000
00000000
01000000
00100000
01000000
00100000
00010000
00000000
00001000
00000000
,
00010000
00001000
00010000
00001000
00010000
00001000
00010000
00001000
00010000
00001000
00010000
00001000
00010000
00001000
00010000
00001000
,
00022000
00033000
01001000
01000000
00100000
10000000
01000000
00100000
,
00220000
00330000
00011000
00001000
00000100
00000010
00000001
00000100
,
00000220
00000330
00011000
00001000
00100000
00010000
01000000
00100000
,
20020000
30030000
10100000
01000000
00001000
00010000
00011000
00001100
,
00000220
00000330
00000011
00000001
00000100
00000010
00010000
00001000
,
02020000
03030000
10010000
00100000
01000000
00100000
00010000
00001000
,
00002200
00003300
00000110
00000001
00000100
00001000
00010000
00100000
,
01000000
00000000
10000000
00010000
10000000
00010000
01000000
00000000
00100000
00000000
00010000
00000000
00022000
00000000
00033000
00000000
,
00111000
00111000
00111000
00111000
,
00011100
00011100
00011100
00011100
,
00001101
00001101
00001101
00001101
,
00111000
00111000
00111000
00111000
,
11000000
11000000
10010000
10010000
00110000
00110000
00101000
00101000
,
00011000
00011000
00010100
00010100
00001100
00001100
00001010
00001010
,
00000110
00000110
00001100
00001100
00011000
00011000
01010000
01010000
,
01100000
00000000
01100000
00000000
00110000
00000000
00110000
00000000
00001000
00010000
00001000
00010000
00001000
00010000
00001000
00010000
,
00011000
00000000
01100000
10000000
00010000
01000000
00100000
10000000
,
01000000
00100000
01000000
00100000
00010000
00000000
00001000
00000000
00000100
00000000
00000010
00000000
00001001
00000000
00000000
00000000
,
01010000
00000000
00000000
00000000
00011000
00000000
00001000
00000000
01000000
00000000
00100000
00000000
00010000
00001000
00010000
00001000
,
00010000
00000000
00100000
00000000
01000000
00000000
10000000
00000000
00010000
10000000
01000000
00000000
01100000
00000000
00000000
00000000
,
00110000
00100000
00001000
00010000
00000100
00001000
00000010
00000100
00000001
00000010
00000100
00001000
,
00010000
00100000
00010000
00100000
01000000
10000000
01000000
00000000
10000000
00010000
00100000
00010000
00100000
00001000
00010000
00001000
,
00010000
00000100
00000010
00000001
00000100
00001000
00010000
00100000
01000000
10000000
00100000
00010000
,
00001000
00010000
00001000
00010000
00001000
00010000
00001000
00010000
00001000
00010000
00001000
00010000
00001000
00010000
00001000
00010000
,
00001000
00000000
00000000
00000000
,
00000000
00000000
00000000
00000000
,
00000000
00000000
00000000
00000000
,
00000000
00000000
00000000
00000000
,
00000000
00000000
00000000
00000000
,
00000000
00000000
00000000
00000000
,
00000000
00000000
00000000
00000000
,
00000000
00000000
00000000
00000000
,
00000000
00000000
00000000
00000000
,
00000000
00000000
00000000
00000000
,
00000000
00000000
00000000
00000000
,
00000000
00000000
00000000
00000000
,
00000000
00000000
00000000
00000000
,
00000000
00000000
00000000
00000000
,
00000000
00000000
00000000
00000000
,
00000000
00000000
00000000
00000000
,
00122100
00000000
00000000
00000000
,
00000000
00000000
00000000
00000000
,
00000000
00000000
00000000
00000000
,
00000000
00000000
00000000
00000000
,
00000000
00000000
00000000
00000000
,
00000000
00000000
00000000
00000000
,
00000000
00000000
00000000
00000000
,
00000000
00000000
00000000
00000000
,
00000000
00000000
00000000
00000000
,
00000000
00000000
00000000
00000000
,
00000000
00000000
00000000
00000000
,
00000000
00000000
00000000
00000000
,
00000000
00000000
00000000
00000000
,
00000000
00000000
00000000
00000000
,
00000000
00000000
00000000
00000000
,
00000000
00000000
00000000
00000000
,
00033000
00000000
00000000
00000000
;

//---------------dance-double - ----------------
#NOTES:
     dance-double:
     :
     Challenge:
     14:
     1.000,1.000,1.000,0.779,1.000,991.000,151.000,100.000,0.000,18.000:
00011000
00001000
00101000
00000000
00110000
00010000
00011000
00000000
,
00001100
00000100
00000110
00000000
00000011
00000001
00001001
00000000
,
00001100
00000100
00010100
00000000
00011000
00001000
00101000
00000000
,
00110000
00010000
00011000
00000000
00100100
00100000
00011000
00000000
,
00222200
00300300
00000000
00033000
,
00010000
00001000
00010000
00001000
00010000
00001000
00010000
00001000
00010000
00001000
00010000
00001000
00010000
00001000
00010000
00001000
,
00010000
00001000
00010000
00001000
00010000
00001000
00010000
00001000
00010000
00001000
00010000
00001000
00010000
00001000
00010000
00001000
,
00010000
00001000
00010000
00001000
00010000
00001000
00010000
00001000
00010000
00001000
00010000
00001000
00010000
00001000
00010000
00001000
,
00010000
00001000
00010000
00001000
00010000
00001000
00010000
00001000
00010000
00001000
00010000
00001000
00010000
00001000
00010000
00001000
,
00022000
00033000
00110000
01000000
10000000
00100000
00010000
00001000
,
00002200
00003300
00000110
00000001
00000100
00000010
00000100
00001000
,
00022000
00033000
00110000
01000000
10000000
01000000
00100000
00010000
,
00022000
00033000
00001100
00000010
00000001
00001000
00000100
00010000
,
00022000
00033000
00110000
00010000
01000000
00100000
10000000
01000000
,
00220000
00330000
00011000
00001000
00000100
00000010
00000001
00000100
,
00002200
00003300
00011000
00100000
01000000
10000000
00010000
00100000
,
00022000
00000000
00033000
00000000
00010100
00000000
00001000
00000000
00000010
00000100
00000010
00000100
00000001
00001000
00000001
00001000
,
00000100
00000010
00000100
00000010
00000002
00000200
00000303
00000000
00001000
00010000
00001000
00010000
00002000
00020000
00033000
00000000
,
00100000
00010000
00100000
00010000
00200000
00020000
00330000
00000000
01000000
10000000
01000000
10000000
02000000
20000000
33000000
00000000
,
00001000
00010000
00001000
00010000
00002000
00020000
00033000
00000000
00000010
00001000
00000010
00001000
00000020
00002000
00003030
00000000
,
00000100
00000001
00000100
00000001
00000200
00000002
00000303
00000000
00010000
00001000
00010000
00001000
00020000
00002000
00033000
00000000
,
01000000
00010000
01000000
00010000
10000000
10000000
01000000
10000000
00010000
00100000
00001000
00010000
00001000
00001000
00010000
00000100
,
00010000
00000010
00000100
00000010
00001000
00001000
00000100
00001000
00000001
00000100
00000001
00000010
00000100
00000010
00000100
00001000
,
00010000
00100000
00010000
00100000
00000000
01000000
10000000
01000000
10000000
00010000
00010000
01000000
00001000
00100000
00001000
00100000
,
00100000
00010000
00001000
00010000
00001000
00000100
00000010
00000100
00000010
00000010
00000001
00000010
00000001
00001000
00000100
00001000
,
00000100
00010000
00001000
00010000
00001000
00100000
00010000
00000000
01000000
00100000
01000000
00100000
10000000
01000000
00100000
00000000
,
00010000
00001000
00010000
00001000
00000100
00000010
00000001
00000000
00001000
00000010
00001000
00000010
00010000
00001000
00100000
00000000
,
01000000
10000000
01000000
10000000
00010000
00100000
00001000
00000000
00010000
00000010
00010000
00000010
00001000
00000001
00000010
00000000
,
00000100
00001000
00000100
00001000
00010000
00100000
01000000
00000000
10000000
00010000
10000000
00010000
00100000
00001000
00010000
00000000
,
00011000
00000000
00010000
00001000
00010000
00000000
00011000
00000000
00011000
00000000
00010000
00001000
00010000
00000000
00011000
00000000
,
01100000
00000000
01000000
00100000
01000000
00000000
01100000
00000000
01200000
00000000
01000000
00000000
01000000
00000000
01300000
00000000
,
11000000
00000000
10000000
01000000
10000000
00000000
11000000
00000000
11000000
00000000
10000000
01000000
10000000
00000000
11000000
00000000
,
10010000
00000000
00010000
10000000
00010000
00000000
10010000
00000000
20010000
00000000
00010000
00000000
00010000
00000000
30010000
00000000
,
01000000
00100000
01000000
00000000
00001000
00010000
00000100
00000000
00001000
00000010
00001000
00000010
00001000
00000010
00000100
00000001
,
00000001
00000010
00000100
00000000
00001000
00010000
00100000
00000000
01000000
10000000
01000000
10000000
01000000
10000000
00010000
01000000
,
01000000
00100000
10000000
00000000
00010000
00100000
00001000
00000000
00010000
00000100
00010000
00000100
00010000
00000100
00001000
00000010
,
00010000
00001000
00010000
00001000
00010000
00001000
00010000
00001000
00010000
00001000
00010000
00001000
00010000
00001000
00010000
00001000
,
00022000
00000000
00033000
00000000
00110000
00000000
01000000
00000000
10000000
00000000
00100000
00000000
01000000
00001000
01000000
00000000
,
00022000
00000000
00033000
00000000
00001100
00000000
00000010
00000000
00000001
00000000
00000100
00000000
00001000
00010000
00001000
00000000
,
00220000
00000000
00330000
00000000
01100000
00000000
10000000
00000000
00010000
00000000
01000000
00000000
00100000
00001000
00100000
00000000
,
00002200
00003300
00000110
00000001
00000100
00001000
00011000
00110000
,
00220000
00000000
00330000
00000000
01100000
00000000
10000000
00000000
01000000
00000000
00100000
00000000
00010000
00001000
00010000
00000000
,
00002200
00000000
00003300
00000000
00000101
00000000
00000001
00000000
00000100
00000000
00001000
00000000
00010000
00100000
00010000
00000000
,
02200000
00000000
03300000
00000000
10010000
00000000
01000000
00000000
00100000
00000000
00010000
00000000
00001000
00000100
00001000
00000000
,
00000110
00000000
00000010
00000100
00000001
00000100
00000001
00001000
00000100
00001000
00000100
00001000
00001100
00000000
00000000
00000000
,
00011000
00000100
00010000
00100000
00001000
00000100
00010000
00100000
,
00011000
00000100
00010000
00100000
00001000
00000100
00022000
00033000
,
00100100
00010000
00000100
00001000
00100000
00010000
00000100
00001000
,
00100100
00010000
00000100
00001000
00100000
00010000
00022000
00033000
,
00100000
00000100
00100000
00000100
00100000
00000100
00100000
00000100
00100000
00000100
00100000
00000100
00100000
00000100
00100000
00000100
,
00010000
00001000
00010000
00001000
00010000
00001000
00010000
00001000
00010000
00001000
00010000
00001000
00010000
00001000
00010000
00001000
,
00010000
00001000
00010000
00001000
00010000
00001000
00010000
00001000
00010000
00001000
00010000
00001000
00010000
00001000
00010000
00001000
,
00100000
00000100
00100000
00000100
00100000
00000100
00100000
00000100
00010000
00001000
00010000
00001000
00010000
00001000
00010000
00001000
,
00021000
01000000
02030000
00100000
03200000
10000000
20300000
01000000
,
32000000
00100000
03200000
00010000
00320000
00001000
00032000
00000100
,
00003200
00000010
00000320
00000001
00000032
00000100
00000203
00001000
,
00002300
00010000
00023000
01000000
02030000
00100000
03200000
00010000
,
00320000
00001000
00032000
00000010
00003020
00000001
00000032
00001000
,
00002003
00000100
00003200
00010000
00020300
00001000
00032000
00100000
,
00103000
00000000
00010000
00000000
10000000
00000000
01000000
00000000
00100000
00000000
00010000
00000000
00001000
00000000
00000100
00000010
,
00000001
00000010
00000100
00000000
00001000
00000000
00010000
00000000
00100000
00000000
01000000
10000000
01000000
10000000
01000000
10000000
,
01000000
00010000
10000000
01000000
00100000
00010000
00001000
00000100
00000010
00000001
00000100
00000010
,
00001000
00000100
00010000
00001000
00100000
00010000
01000000
00100000
10000000
01000000
10000000
00010000
,
00100000
01000000
00001000
00010000
00000010
00000100
00000001
00001000
00000100
00010000
00001000
00100000
,
01000000
10000000
00010000
01000000
00100000
00010000
00001000
00000100
00000010
00000001
00000100
00000010
,
00001010
00000000
00001000
00000100
00010000
00001000
00100000
00010000
10000000
00010000
01000000
00100000
01000000
00100000
00010000
00100000
,
00001000
00010000
00001000
00010000
00001000
00010000
00001000
00010000
00001000
00010000
00001000
00010000
00001000
00010000
00001000
00010000
,
00011000
00000000
00100000
01000000
00100000
01000000
10000000
00000000
01000000
00100000
01000000
00100000
00010000
00001000
00000100
00001000
,
00010000
00001000
00010000
00001000
00010000
00001000
00010000
00001000
00010000
00001000
00010000
00001000
00010000
00001000
00010000
00001000
,
00022000
00000000
00033000
00000000
01001000
00000000
01000000
00000000
00100000
00000000
10000000
00000000
01000000
00100000
01000000
00000000
,
00220000
00000000
00330000
00000000
00011000
00000000
00001000
00000000
00000100
00000000
00000010
00000000
00000001
00000100
00000001
00000000
,
00000220
00000000
00000330
00000000
00011000
00000000
00001000
00000000
00100000
00000000
00010000
00000000
01000000
00100000
01000000
00000000
,
20020000
30030000
10100000
01000000
00001000
00010000
00011000
00001100
,
00000220
00000000
00000330
00000000
00000011
00000000
00000001
00000000
00000100
00000000
00000010
00000000
00010000
00001000
00010000
00000000
,
02020000
00000000
03030000
00000000
10010000
00000000
00100000
00000000
01000000
00000000
00100000
00000000
00010000
00001000
00010000
00000000
,
00002200
00000000
00003300
00000000
00000110
00000000
00000001
00000000
00000100
00000000
00001000
00000000
00010000
00100000
00010000
00100000
,
01000000
00000000
10000000
00010000
10000000
00010000
01000000
00100000
01000000
00100000
00010000
00001000
00022000
00000000
00033000
00000000
,
00111000
00011000
00111000
00000000
00111000
00011000
00111000
00000000
,
00011100
00011000
00011100
00000000
00011100
00011000
00011100
00000000
,
00001101
00001100
00001101
00000000
00001101
00001100
00001101
00000000
,
00111000
00011000
00111000
00000000
00111000
00011000
00111000
00000000
,
11000000
11000000
10010000
10010000
00110000
00110000
00101000
00101000
,
00011000
00011000
00010100
00010100
00001100
00001100
00001010
00001010
,
00000110
00000110
00001100
00001100
00011000
00011000
01010000
01010000
,
01100000
00000000
01100000
00000000
00110000
00000000
00110000
00000000
00001000
00010000
00001000
00010000
00001000
00010000
00001000
00010000
,
00011000
00000000
00000000
00000000
01100000
00000000
10000000
00000000
00010000
00000000
01000000
00000000
00100000
10000000
00010000
10000000
,
01000000
00100000
01000000
00100000
00010000
00001000
00000100
00000010
00000001
00000100
00000010
00001000
00001001
00000000
00000000
00000000
,
01010000
00000000
01000000
00000000
00011000
00000000
00001000
00100000
01000000
10000000
00100000
01000000
00010000
00001000
00010000
00001000
,
00010000
00001000
00000100
00000010
00000001
00000100
00001000
00010000
00100000
01000000
10000000
00000000
11000000
00000000
00000000
00000000
,
00110000
00100000
00001000
00010000
00000100
00001000
00000010
00000100
00000001
00000010
00000001
00000010
00000100
00001000
00000100
00001000
,
00010000
00100000
00010000
00100000
01000000
10000000
01000000
00000000
10000000
00010000
00100000
00010000
00100000
00001000
00010000
00001000
,
00010000
00000100
00001000
00000010
00000100
00000001
00000010
00000001
00000010
00000100
00001000
00010000
00001000
00100000
00001000
00010000
,
00001000
00010000
00001000
00010000
00001000
00010000
00001000
00010000
00001000
00010000
00001000
00010000
00001000
00010000
00001000
00010000
,
00001000
00000000
00000000
00000000
,
00000000
00000000
00000000
00000000
,
00000000
00000000
00000000
00000000
,
00000000
00000000
00000000
00000000
,
00000000
00000000
00000000
00000000
,
00000000
00000000
00000000
00000000
,
00000000
00000000
00000000
00000000
,
00000000
00000000
00000000
00000000
,
00000000
00000000
00000000
00000000
,
00000000
00000000
00000000
00000000
,
00000000
00000000
00000000
00000000
,
00000000
00000000
00000000
00000000
,
00000000
00000000
00000000
00000000
,
00000000
00000000
00000000
00000000
,
00000000
00000000
00000000
00000000
,
00000000
00000000
00000000
00000000
,
00222200
00000000
00300300
00000000
,
00000000
00000000
00000000
00000000
,
00000000
00000000
00000000
00000000
,
00000000
00000000
00000000
00000000
,
00000000
00000000
00000000
00000000
,
00000000
00000000
00000000
00000000
,
00000000
00000000
00000000
00000000
,
00000000
00000000
00000000
00000000
,
00000000
00000000
00000000
00000000
,
00000000
00000000
00000000
00000000
,
00000000
00000000
00000000
00000000
,
00000000
00000000
00000000
00000000
,
00000000
00000000
00000000
00000000
,
00000000
00000000
00000000
00000000
,
00000000
00000000
00000000
00000000
,
00000000
00000000
00000000
00000000
,
00033000
00000000
00000000
00000000
;
